<?xml version="1.0" standalone="no"?>
<!DOCTYPE svg PUBLIC "-//W3C//DTD SVG 1.1//EN" "http://www.w3.org/Graphics/SVG/1.1/DTD/svg11.dtd" >
<svg xmlns="http://www.w3.org/2000/svg">
<metadata></metadata>
<defs>
<font id="DINRegular" horiz-adv-x="1069" >
<font-face units-per-em="2048" ascent="1638" descent="-410" />
<missing-glyph horiz-adv-x="509" />
<glyph horiz-adv-x="0" />
<glyph horiz-adv-x="2048" />
<glyph unicode=" "  horiz-adv-x="509" />
<glyph unicode="&#x09;" horiz-adv-x="509" />
<glyph unicode="&#xa0;" horiz-adv-x="509" />
<glyph unicode="!" horiz-adv-x="647" d="M266 0v172h176v-172h-176zM270 1458h170l-22 -1048h-127z" />
<glyph unicode="&#x22;" horiz-adv-x="866" d="M180 1110v348h162v-348h-162zM524 1110v348h162v-348h-162z" />
<glyph unicode="#" horiz-adv-x="1337" d="M158 465v131h204l48 289h-189v135h207l70 440h153l-71 -440h325l70 440h149l-69 -440h178v-135h-197l-47 -289h182v-131h-202l-74 -465h-152l74 465h-328l-71 -465h-152l74 465h-182zM512 596h326l47 289h-326z" />
<glyph unicode="$" horiz-adv-x="1220" d="M86 180l107 107q80 -80 163 -116.5t189 -41.5v543l-41 4q-78 7 -148.5 38t-117.5 72q-113 101 -113 273q0 174 110.5 284t301.5 125v183h122v-183q117 -6 206 -43.5t175 -113.5l-100 -101q-126 113 -287 123v-530l64 -10q101 -17 159.5 -40t104.5 -63q125 -106 125 -289 q0 -177 -121.5 -286t-325.5 -123v-225h-122v221q-144 6 -249.5 51t-201.5 141zM279 1065q0 -112 65 -168q75 -62 201 -80v516q-126 -10 -196 -81.5t-70 -186.5zM653 129q139 9 218 79.5t79 188.5q0 121 -71 183q-12 11 -26 20t-25 15t-28 11.5t-26.5 8.5t-30 6.5t-28 5 t-31.5 4.5t-31 4v-526z" />
<glyph unicode="%" horiz-adv-x="1705" d="M133 981v215q0 125 78 201t199 76q120 0 198 -76.5t78 -200.5v-215q0 -123 -78 -198.5t-198 -75.5q-121 0 -199 75.5t-78 198.5zM250 985q0 -176 160 -176q159 0 159 176v207q0 178 -159 178q-160 0 -160 -178v-207zM451 0l684 1458h122l-684 -1458h-122zM1022 262v215 q0 125 77.5 201t198.5 76q120 0 198.5 -76.5t78.5 -200.5v-215q0 -124 -78.5 -200t-198.5 -76q-121 0 -198.5 75.5t-77.5 200.5zM1139 266q0 -178 159 -178q81 0 120.5 46.5t39.5 131.5v207q0 85 -39.5 131.5t-120.5 46.5q-159 0 -159 -178v-207z" />
<glyph unicode="&#x26;" horiz-adv-x="1513" d="M158 412q0 53 11.5 100t35.5 87.5t49.5 72t66.5 65.5t72 56.5t80 54.5q-39 46 -57 70t-47 69t-41.5 88t-12.5 90q0 131 91.5 218t230.5 87q136 0 226.5 -88t90.5 -219q0 -150 -161 -260q-74 -49 -109 -74l373 -448q45 68 63 140t19 194h147q-3 -288 -135 -447l223 -268 h-194l-131 160q-185 -172 -431 -172q-211 0 -335.5 116t-124.5 308zM309 416q0 -130 85.5 -210.5t221.5 -80.5q91 0 174 31t171 110l-402 484q-40 -27 -54.5 -37.5t-49 -37t-48.5 -41.5t-37.5 -43t-33.5 -52t-18.5 -56t-8.5 -67zM469 1167q0 -49 27.5 -98t103.5 -141l78 53 q63 44 97 84.5t34 97.5q0 74 -49.5 124t-122.5 50q-74 0 -121 -48t-47 -122z" />
<glyph unicode="'" horiz-adv-x="522" d="M180 1110v348h162v-348h-162z" />
<glyph unicode="(" horiz-adv-x="610" d="M188 195v1069q0 132 43 211q6 11 12 21t14.5 21.5t13.5 18.5t16 19t15 17t18 19.5t17.5 18l20.5 20.5l21 21l100 -101l-16.5 -16.5l-17 -17t-14.5 -15t-15 -16.5t-12.5 -15t-13 -17t-10.5 -16.5t-11 -19.5q-33 -68 -33 -166v-1044q0 -98 33 -166q5 -10 11 -19.5 t10.5 -16.5t13 -17t12.5 -15t15 -16.5t14.5 -15l17 -17l16.5 -16.5l-100 -101q-46 46 -62.5 63t-42.5 49.5t-43 64.5q-43 79 -43 211z" />
<glyph unicode=")" horiz-adv-x="610" d="M127 -88q7 7 26.5 26t27 27t21 23t22 28.5t16.5 28.5q28 57 28 162v1044q0 105 -28 162q-8 15 -16.5 28.5t-22 28.5t-21 23t-27 27t-26.5 26l104 105l21 -21l20.5 -20.5t17.5 -18t18 -19.5t15 -17t16 -19t13.5 -18.5t14.5 -21.5t12 -21q41 -75 41 -211v-1069 q0 -136 -41 -211q-17 -32 -43 -64.5t-42.5 -49.5t-62.5 -63z" />
<glyph unicode="*" horiz-adv-x="970" d="M137 967l246 133l-246 135l60 98l237 -145l-8 280h119l-8 -280l239 145l58 -98l-246 -135l246 -133l-58 -101l-239 146l8 -281h-119l8 281l-237 -146z" />
<glyph unicode="+" d="M106 479v137h361v357h137v-357h359v-137h-359v-360h-137v360h-361z" />
<glyph unicode="," horiz-adv-x="540" d="M180 180h180v-313l-180 -162v475z" />
<glyph unicode="-" horiz-adv-x="872" d="M156 483v138h561v-138h-561z" />
<glyph unicode="." horiz-adv-x="552" d="M180 0v193h193v-193h-193z" />
<glyph unicode="/" horiz-adv-x="727" d="M0 -152l584 1762h145l-584 -1762h-145z" />
<glyph unicode="0" d="M135 389v680q0 179 113.5 290t286.5 111t286 -111t113 -290v-680q0 -179 -113 -290t-286 -111t-286.5 111t-113.5 290zM283 397q0 -123 66.5 -200.5t185.5 -77.5q118 0 184.5 77t66.5 201v664q0 124 -66.5 201t-184.5 77q-119 0 -185.5 -77.5t-66.5 -200.5v-664z" />
<glyph unicode="1" d="M256 1055v168l272 235h148v-1458h-148v1294z" />
<glyph unicode="2" d="M139 0v131l576 731q82 107 82 215q0 120 -67.5 191t-186.5 71q-110 0 -182 -65.5t-72 -198.5h-148q0 174 110.5 284.5t291.5 110.5t291 -107t110 -286q0 -84 -27 -149.5t-90 -145.5l-510 -651h627v-131h-805z" />
<glyph unicode="3" d="M86 371h147q8 -128 87.5 -191t193.5 -63q122 0 201.5 76t79.5 206q0 136 -70.5 209.5t-216.5 73.5h-31v129h31q131 0 195.5 69t64.5 195t-72 196t-182 70q-114 0 -182.5 -64.5t-79.5 -178.5h-148q12 173 126 274t284 101q179 0 290 -109t111 -287q0 -235 -196 -323 q223 -83 223 -357q0 -194 -121 -302.5t-307 -108.5q-182 0 -300.5 98t-127.5 287z" />
<glyph unicode="4" d="M82 231v134l526 1093h158l-526 -1093h424v413h145v-413h178v-134h-178v-231h-145v231h-582z" />
<glyph unicode="5" d="M143 344h148q28 -227 248 -227q113 0 180 67q51 51 65.5 123t14.5 174q0 59 -5 106t-21 95.5t-42 80.5t-71.5 52.5t-106.5 20.5q-93 0 -156.5 -39t-85.5 -105h-133v766h737v-131h-604v-463q91 101 262 101q159 0 252 -93q72 -72 96.5 -169t24.5 -222q0 -130 -23 -223 t-94 -164q-108 -108 -290 -108q-189 0 -293 104q-91 95 -103 254z" />
<glyph unicode="6" d="M133 408q0 141 92 327l359 723h151l-325 -655q70 31 153 31q169 0 274 -116.5t105 -297.5q0 -189 -110 -310.5t-293 -121.5q-185 0 -295.5 115t-110.5 305zM281 414q0 -134 69.5 -214.5t186.5 -80.5t187.5 80.5t70.5 214.5q0 127 -68.5 211t-189.5 84q-117 0 -186.5 -80 t-69.5 -215z" />
<glyph unicode="7" d="M156 1098v360h809v-131l-506 -1327h-156l506 1327h-508v-229h-145z" />
<glyph unicode="8" d="M104 401q0 120 60 209t160 146q-191 110 -191 323q0 170 114 280.5t288 110.5t287.5 -110.5t113.5 -280.5q0 -215 -188 -323q99 -57 158 -145.5t59 -209.5q0 -182 -123 -297.5t-307 -115.5t-307.5 115.5t-123.5 297.5zM252 403q0 -121 81.5 -202.5t201.5 -81.5t201 81.5 t81 202.5t-81 203t-201 82t-201.5 -82t-81.5 -203zM281 1077q0 -115 70.5 -187.5t183.5 -72.5q112 0 182.5 72t70.5 188q0 115 -70.5 188.5t-182.5 73.5t-183 -74t-71 -188z" />
<glyph unicode="9" d="M127 1038q0 189 110 310.5t293 121.5q185 0 295.5 -114.5t110.5 -304.5q0 -142 -92 -328l-359 -723h-153l327 655q-67 -30 -155 -30q-169 0 -273 115.5t-104 297.5zM274 1044q0 -127 67.5 -210.5t188.5 -83.5q117 0 187.5 79.5t70.5 214.5q0 134 -70.5 214.5t-187.5 80.5 t-186.5 -80.5t-69.5 -214.5z" />
<glyph unicode=":" horiz-adv-x="608" d="M236 0v193h192v-193h-192zM236 616v193h192v-193h-192z" />
<glyph unicode=";" horiz-adv-x="608" d="M236 616v193h192v-193h-192zM240 180h180v-313l-180 -162v475z" />
<glyph unicode="&#x3c;" horiz-adv-x="2103" d="M113 551l817 817h192l-747 -745h1616v-144h-1616l747 -745h-192z" />
<glyph unicode="=" d="M106 309v135h857v-135h-857zM106 655v138h857v-138h-857z" />
<glyph unicode="&#x3e;" horiz-adv-x="2103" d="M113 479v144h1616l-748 745h193l817 -817l-817 -817h-193l748 745h-1616z" />
<glyph unicode="?" horiz-adv-x="1017" d="M156 1096q0 158 110 266t275 108q163 0 273 -105t110 -267q0 -66 -23.5 -123.5t-69.5 -124.5l-167 -242q-37 -55 -37 -119v-79h-148v82q0 58 15 101t49 91l166 240q34 50 50.5 88t16.5 86q0 103 -66.5 172t-168.5 69q-106 0 -172 -71.5t-66 -171.5h-147zM465 0v172h176 v-172h-176z" />
<glyph unicode="@" horiz-adv-x="1460" d="M147 328v688q0 212 115 330q111 114 316 114h303q201 0 315 -114q117 -117 117 -330v-1018l-142 2v113q-52 -66 -117 -96.5t-157 -30.5q-86 0 -159 32.5t-120 92.5q-51 63 -70.5 147.5t-19.5 228.5q0 138 19 225.5t65 149.5q44 60 119 93.5t164 33.5q169 0 274 -129v160 q0 83 -17.5 135.5t-61.5 97.5q-82 82 -228 82h-266q-141 0 -223 -82q-46 -46 -64 -97t-18 -136v-690q0 -97 23.5 -146.5t93.5 -101.5l-101 -100q-94 69 -127 139.5t-33 206.5zM674 487q0 -63 5 -112.5t20.5 -100.5t42 -84.5t72.5 -55t108 -21.5t108 21.5t72 55t41.5 84.5 t20.5 100.5t5 112.5q0 64 -5 113t-20.5 100.5t-41.5 85t-72 55t-108 21.5t-108 -21.5t-72.5 -55t-42 -85t-20.5 -101t-5 -112.5z" />
<glyph unicode="A" horiz-adv-x="1251" d="M25 0l536 1458h131l535 -1458h-166l-117 330h-637l-117 -330h-165zM354 465h545l-270 770z" />
<glyph unicode="B" horiz-adv-x="1368" d="M211 0v1458h549q193 0 311.5 -104.5t118.5 -284.5q0 -113 -60 -198.5t-155 -120.5q108 -40 172.5 -130t64.5 -217q0 -194 -118 -298.5t-316 -104.5h-567zM367 139h397q135 0 214 73t79 196t-79 194.5t-214 71.5h-397v-535zM367 813h381q128 0 207 64.5t79 189.5 t-79 188.5t-207 63.5h-381v-506z" />
<glyph unicode="C" horiz-adv-x="1304" d="M156 729q0 85 0.5 124.5t3 102t7.5 93.5t14.5 76t24.5 73t36.5 60t50.5 61q151 151 373 151q198 0 333.5 -115t171.5 -319h-159q-30 136 -121 215.5t-225 79.5q-73 0 -139 -26.5t-113 -75.5q-66 -68 -84.5 -164t-18.5 -336t18.5 -336t84.5 -164q47 -49 113 -75.5 t139 -26.5q135 0 227.5 80t122.5 215h155q-35 -203 -171.5 -318.5t-333.5 -115.5q-222 0 -373 151q-29 29 -50.5 61t-36.5 60t-24.5 73t-14.5 76t-7.5 93.5t-3 102t-0.5 124.5z" />
<glyph unicode="D" horiz-adv-x="1378" d="M211 0v1458h500q233 0 368 -135q35 -35 61 -75.5t41 -90t24.5 -88.5t13 -100.5t4 -94.5t0.5 -100v-10v-9.5v-9.5v-29q0 -67 -0.5 -103.5t-4 -101t-13 -108t-24.5 -96t-41 -95t-61 -77.5q-135 -135 -368 -135h-500zM367 139h317q183 0 287 107q34 36 55 88.5t29.5 127.5 t10 124.5t1.5 138.5v20v92t-2.5 82.5t-8 89.5t-16 72.5t-28 75t-41.5 55.5q-104 107 -287 107h-317v-1180z" />
<glyph unicode="E" horiz-adv-x="1228" d="M211 0v1458h905v-139h-749v-514h639v-139h-639v-527h749v-139h-905z" />
<glyph unicode="F" horiz-adv-x="1187" d="M211 0v1458h905v-139h-749v-537h639v-139h-639v-643h-156z" />
<glyph unicode="G" horiz-adv-x="1331" d="M156 729q0 85 0.5 124.5t3 102t7.5 93.5t14.5 76t24.5 73t36.5 60t50.5 61q151 151 373 151q205 0 341 -120t169 -316h-156q-31 139 -124.5 218t-229.5 79q-72 0 -138.5 -27.5t-113.5 -76.5q-67 -68 -85 -163.5t-18 -334.5q0 -240 18.5 -336t84.5 -164q47 -49 113 -75.5 t139 -26.5q81 0 153.5 32t122.5 93q82 100 82 264v111h-358v137h514v-232q0 -127 -29 -216t-96 -160q-154 -168 -389 -168q-222 0 -373 151q-29 29 -50.5 61t-36.5 60t-24.5 73t-14.5 76t-7.5 93.5t-3 102t-0.5 124.5z" />
<glyph unicode="H" horiz-adv-x="1425" d="M211 0v1458h156v-653h692v653h155v-1458h-155v666h-692v-666h-156z" />
<glyph unicode="I" horiz-adv-x="577" d="M211 0v1458h156v-1458h-156z" />
<glyph unicode="J" horiz-adv-x="1026" d="M47 119l105 104q48 -48 97 -72t132 -24q143 0 221 87.5t78 248.5v995h156v-1016q0 -208 -126.5 -331t-328.5 -123q-203 0 -334 131z" />
<glyph unicode="K" horiz-adv-x="1331" d="M211 0v1458h156v-837l680 837h190l-459 -563l525 -895h-185l-444 776l-307 -368v-408h-156z" />
<glyph unicode="L" horiz-adv-x="1173" d="M211 0v1458h156v-1319h745v-139h-901z" />
<glyph unicode="M" horiz-adv-x="1671" d="M211 0v1458h156l475 -1034l463 1034h155v-1458h-155v1108l-400 -879h-133l-405 879v-1108h-156z" />
<glyph unicode="N" horiz-adv-x="1499" d="M211 0v1458h147l775 -1165v1165h155v-1458h-147l-774 1169v-1169h-156z" />
<glyph unicode="O" horiz-adv-x="1331" d="M156 729q0 85 0.5 124.5t3 102t7.5 93.5t14.5 76t24.5 73t36.5 60t50.5 61q151 151 373 151q221 0 372 -151q34 -34 57.5 -68t39 -79.5t24 -81t12.5 -103.5t4.5 -114.5t0.5 -143.5v-143.5t-4.5 -114.5t-13 -103.5t-24 -81t-39 -79.5t-57.5 -68q-151 -151 -372 -151 q-222 0 -373 151q-29 29 -50.5 61t-36.5 60t-24.5 73t-14.5 76t-7.5 93.5t-3 102t-0.5 124.5zM311 729q0 -239 18 -334.5t85 -163.5q47 -49 113.5 -76.5t138.5 -27.5t138.5 27.5t113.5 76.5q66 68 84 163t18 335t-18 335t-84 163q-47 49 -113.5 76.5t-138.5 27.5 t-138.5 -27.5t-113.5 -76.5q-67 -68 -85 -163.5t-18 -334.5z" />
<glyph unicode="P" horiz-adv-x="1290" d="M211 0v1458h543q201 0 325.5 -116.5t124.5 -311.5t-124.5 -312.5t-325.5 -117.5h-387v-600h-156zM367 739h372q141 0 225.5 75t84.5 216t-84.5 215t-225.5 74h-372v-580z" />
<glyph unicode="Q" horiz-adv-x="1329" d="M156 729q0 85 0.5 124.5t3 102t7.5 93.5t14.5 76t24.5 73t36.5 60t50.5 61q151 151 373 151q221 0 372 -151q34 -34 57.5 -68t39 -79.5t24 -81t12.5 -103.5t4.5 -114.5t0.5 -143.5q0 -243 -16 -352t-85 -195l160 -159l-94 -95l-162 162q-132 -102 -313 -102 q-222 0 -373 151q-29 29 -50.5 61t-36.5 60t-24.5 73t-14.5 76t-7.5 93.5t-3 102t-0.5 124.5zM311 729q0 -239 18 -334.5t85 -163.5q47 -49 113.5 -76.5t138.5 -27.5q114 0 206 70l-184 184l94 94l179 -178q37 61 48 151.5t11 280.5q0 240 -18 335t-84 163 q-47 49 -113.5 76.5t-138.5 27.5t-138.5 -27.5t-113.5 -76.5q-67 -68 -85 -163.5t-18 -334.5z" />
<glyph unicode="R" horiz-adv-x="1343" d="M211 0v1458h559q193 0 312.5 -109t119.5 -296q0 -156 -86 -258.5t-231 -132.5l346 -662h-182l-332 647h-350v-647h-156zM367 784h389q132 0 211.5 68.5t79.5 198.5t-79.5 199t-211.5 69h-389v-535z" />
<glyph unicode="S" horiz-adv-x="1204" d="M86 180l107 107q89 -89 180 -124.5t217 -35.5q160 0 252 71.5t92 198.5q0 122 -70 183q-35 30 -72 43.5t-118 25.5l-170 27q-173 27 -268 110q-111 99 -111 273q0 187 126 299t341 112q139 0 239.5 -37t194.5 -122l-100 -101q-70 64 -149 94.5t-191 30.5 q-144 0 -225.5 -73.5t-81.5 -196.5q0 -112 65 -168q69 -60 197 -80l159 -24q100 -15 160 -38.5t107 -64.5q123 -105 123 -289q0 -191 -137.5 -302t-366.5 -111q-164 0 -280.5 44.5t-219.5 147.5z" />
<glyph unicode="T" horiz-adv-x="1122" d="M61 1319v139h1000v-139h-422v-1319h-156v1319h-422z" />
<glyph unicode="U" horiz-adv-x="1398" d="M190 481v977h156v-964q0 -166 96 -266.5t256 -100.5t257.5 100.5t97.5 266.5v964h155v-977q0 -217 -144 -355t-366 -138t-365 138t-143 355z" />
<glyph unicode="V" horiz-adv-x="1118" d="M16 1458h164l379 -1179l379 1179h164l-479 -1458h-127z" />
<glyph unicode="W" horiz-adv-x="1748" d="M33 1458h166l284 -1175l322 1175h139l322 -1175l284 1175h166l-373 -1458h-145l-324 1167l-323 -1167h-145z" />
<glyph unicode="X" horiz-adv-x="1128" d="M31 0l446 748l-418 710h181l323 -575l324 575h180l-420 -710l451 -748h-180l-355 612l-356 -612h-176z" />
<glyph unicode="Y" horiz-adv-x="1052" d="M16 1458h168l344 -698l340 698h168l-430 -856v-602h-155v602z" />
<glyph unicode="Z" horiz-adv-x="1138" d="M117 0v147l729 1172h-701v139h877v-131l-735 -1188h735v-139h-905z" />
<glyph unicode="[" horiz-adv-x="641" d="M188 -152v1762h363v-131h-215v-1499h215v-132h-363z" />
<glyph unicode="\" horiz-adv-x="727" d="M0 1604h145l582 -1756h-145z" />
<glyph unicode="]" horiz-adv-x="641" d="M90 -25h221v1508h-221v127h363v-1762h-363v127z" />
<glyph unicode="^" horiz-adv-x="1099" d="M147 846l336 624h135l334 -624h-151l-250 467l-252 -467h-152z" />
<glyph unicode="_" horiz-adv-x="1099" d="M0 -233h1100v-105h-1100v105z" />
<glyph unicode="`" horiz-adv-x="1024" d="M256 1530h176l180 -313h-135z" />
<glyph unicode="a" horiz-adv-x="1077" d="M104 285q0 134 91.5 212t257.5 78h303v97q0 112 -61 166.5t-197 54.5q-96 0 -153 -26t-101 -89l-101 92q65 85 147 117.5t210 32.5q201 0 302 -85.5t101 -250.5v-684h-147v96q-61 -61 -125 -84.5t-166 -23.5q-105 0 -171.5 21.5t-113.5 70.5q-76 76 -76 205zM248 287 q0 -88 56 -130t175 -42q78 0 130.5 12.5t95.5 54.5q51 48 51 174v109h-283q-225 0 -225 -178z" />
<glyph unicode="b" horiz-adv-x="1116" d="M184 0v1458h148v-567q58 73 125.5 101t158.5 28q75 0 140.5 -24t105.5 -64q123 -123 123 -428t-123 -428q-40 -40 -105.5 -64t-140.5 -24q-90 0 -158 29t-126 104v-121h-148zM332 504q0 -65 5 -116t21.5 -103.5t43.5 -87t73.5 -56.5t110.5 -22t110.5 22t73 56t42.5 87 t21 103.5t5 116.5t-5 116.5t-21 103.5t-42.5 87t-73 56t-110.5 22t-110.5 -22t-73.5 -56.5t-43.5 -87t-21.5 -103.5t-5 -116z" />
<glyph unicode="c" horiz-adv-x="1003" d="M129 504q0 249 123.5 382.5t322.5 133.5q106 0 180.5 -33t151.5 -117l-100 -94q-57 63 -108.5 88t-123.5 25q-153 0 -233 -115q-35 -50 -50.5 -112.5t-15.5 -157.5t15.5 -158t50.5 -113q79 -114 233 -114q72 0 123.5 25.5t108.5 88.5l100 -96q-77 -83 -151.5 -116 t-180.5 -33q-199 0 -322.5 133.5t-123.5 382.5z" />
<glyph unicode="d" horiz-adv-x="1116" d="M131 504q0 305 123 428q40 40 105.5 64t140.5 24q91 0 158.5 -28t125.5 -101v567h148v-1458h-146v121q-58 -75 -126.5 -104t-159.5 -29q-75 0 -140.5 24t-105.5 64q-123 123 -123 428zM279 504q0 -66 5 -116.5t21 -103.5t43 -87t73.5 -56t110.5 -22t110.5 22t73 56 t42.5 87t21 103.5t5 116.5t-5 116.5t-21 103.5t-42.5 87t-73 56t-110.5 22t-110.5 -22t-73.5 -56t-43 -87t-21 -103.5t-5 -116.5z" />
<glyph unicode="e" horiz-adv-x="1085" d="M129 504q0 243 110.5 379.5t303.5 136.5q194 0 303.5 -131t109.5 -357v-67h-680q0 -167 76.5 -257.5t220.5 -90.5q86 0 144.5 26t120.5 88l100 -88q-81 -81 -163.5 -118t-205.5 -37q-207 0 -323.5 128.5t-116.5 387.5zM276 575h533q-3 64 -8.5 96t-22.5 72 q-29 69 -92.5 110.5t-142.5 41.5t-143 -41.5t-93 -110.5q-17 -40 -22.5 -72t-8.5 -96z" />
<glyph unicode="f" horiz-adv-x="643" d="M88 889v112h129v191q0 118 66 194t190 76h107v-127h-80q-135 0 -135 -147v-187h215v-112h-215v-889h-148v889h-129z" />
<glyph unicode="g" horiz-adv-x="1112" d="M131 512q0 297 123 420q40 40 105.5 64t140.5 24q91 0 157.5 -28t124.5 -103v119h146v-1039q0 -191 -113 -311.5t-307 -120.5q-111 0 -185.5 30.5t-156.5 104.5l96 95q62 -55 111 -78t131 -23q139 0 207.5 85.5t68.5 223.5v158q-58 -74 -125.5 -102.5t-156.5 -28.5 q-74 0 -138.5 24.5t-105.5 65.5q-123 123 -123 420zM279 512q0 -63 5 -112t20.5 -101t42 -86t73.5 -56t110 -22t109.5 22t73 56t42 86t20.5 101t5 112t-5 112t-20.5 101t-42 86t-73 56t-109.5 22t-110 -22t-73.5 -56t-42 -86t-20.5 -101t-5 -112z" />
<glyph unicode="h" horiz-adv-x="1150" d="M184 0v1458h148v-561q108 123 282 123q169 0 266 -101t97 -272v-647h-148v623q0 130 -64.5 198t-180.5 68t-184 -69t-68 -197v-623h-148z" />
<glyph unicode="i" horiz-adv-x="518" d="M176 1294v166h166v-166h-166zM184 0v1008h148v-1008h-148z" />
<glyph unicode="j" horiz-adv-x="518" d="M-31 -324h80q74 0 104.5 36t30.5 112v1177h148v-1183q0 -122 -64.5 -196.5t-191.5 -74.5h-107v129zM176 1294v166h166v-166h-166z" />
<glyph unicode="k" horiz-adv-x="1097" d="M184 0v1458h148v-975l454 525h185l-342 -385l401 -623h-182l-320 516l-196 -225v-291h-148z" />
<glyph unicode="l" horiz-adv-x="608" d="M180 268v1190h148v-1184q0 -76 30.5 -111.5t104.5 -35.5h80v-127h-107q-127 0 -191.5 73.5t-64.5 194.5z" />
<glyph unicode="m" horiz-adv-x="1800" d="M184 0v1008h148v-111q108 123 284 123q105 0 185 -42.5t125 -125.5q118 168 331 168q164 0 261 -94q108 -105 108 -281v-645h-147v621q0 131 -66 199.5t-182 68.5q-113 0 -182.5 -67t-69.5 -185v-637h-148v621q0 131 -65.5 199.5t-181.5 68.5q-117 0 -184.5 -69.5 t-67.5 -198.5v-621h-148z" />
<glyph unicode="n" horiz-adv-x="1150" d="M184 0v1008h148v-111q108 123 282 123q164 0 258 -94q105 -102 105 -281v-645h-148v621q0 131 -65.5 199.5t-181.5 68.5t-183 -69t-67 -199v-621h-148z" />
<glyph unicode="o" horiz-adv-x="1085" d="M131 504q0 132 26 230.5t97 170.5q115 115 289 115q173 0 288 -115q71 -72 97 -170.5t26 -230.5q0 -133 -26 -231.5t-97 -170.5q-114 -114 -288 -114q-175 0 -289 114q-71 72 -97 170.5t-26 231.5zM279 504q0 -107 15.5 -184t65.5 -127q74 -74 183 -74q110 0 184 74 q50 50 65 126.5t15 184.5t-15 184.5t-65 126.5q-74 74 -184 74q-109 0 -183 -74q-50 -50 -65.5 -127t-15.5 -184z" />
<glyph unicode="p" horiz-adv-x="1116" d="M184 -451v1459h148v-119q58 75 125.5 103t158.5 28q75 0 140.5 -24t105.5 -64q123 -123 123 -428t-123 -428q-40 -40 -105.5 -64t-140.5 -24q-90 0 -158 28.5t-126 102.5v-570h-148zM332 504q0 -65 5 -116t21.5 -103.5t43.5 -87t73.5 -56.5t110.5 -22t110.5 22t73 56 t42.5 87t21 103.5t5 116.5t-5 116.5t-21 103.5t-42.5 87t-73 56t-110.5 22t-110.5 -22t-73.5 -56.5t-43.5 -87t-21.5 -103.5t-5 -116z" />
<glyph unicode="q" horiz-adv-x="1116" d="M131 504q0 305 123 428q40 40 105.5 64t140.5 24q91 0 159.5 -28t126.5 -103v119h146v-1459h-148v570q-58 -74 -126 -102.5t-158 -28.5q-75 0 -140.5 24t-105.5 64q-123 123 -123 428zM279 504q0 -66 5 -116.5t21 -103.5t43 -87t73.5 -56t110.5 -22t110.5 22t73 56 t42.5 87t21 103.5t5 116.5t-5 116.5t-21 103.5t-42.5 87t-73 56t-110.5 22t-110.5 -22t-73.5 -56t-43 -87t-21 -103.5t-5 -116.5z" />
<glyph unicode="r" horiz-adv-x="862" d="M184 0v1008h148v-123q41 63 117.5 99t164.5 36q76 0 133 -21t109 -73l-108 -111q-42 42 -79.5 58t-95.5 16q-108 0 -174.5 -76.5t-66.5 -194.5v-618h-148z" />
<glyph unicode="s" horiz-adv-x="1015" d="M88 133l98 98q110 -116 314 -116q127 0 197.5 45t70.5 133q0 133 -168 147l-166 15q-301 24 -301 270q0 136 103.5 215.5t267.5 79.5q229 0 362 -109l-96 -96q-105 80 -268 80q-109 0 -167.5 -44t-58.5 -122q0 -66 42 -103t135 -44l161 -15q143 -13 220 -76t77 -196 q0 -144 -111.5 -225.5t-297.5 -81.5q-132 0 -232.5 34t-181.5 111z" />
<glyph unicode="t" horiz-adv-x="679" d="M82 889v112h127v316h147v-316h215v-112h-215v-615q0 -71 34.5 -109t103.5 -38h77v-127h-104q-124 0 -191 76t-67 194v619h-127z" />
<glyph unicode="u" horiz-adv-x="1150" d="M174 365v643h148v-621q0 -131 64.5 -199.5t180.5 -68.5q117 0 184.5 69.5t67.5 198.5v621h148v-1008h-146v113q-110 -125 -284 -125q-167 0 -261 94q-102 99 -102 283z" />
<glyph unicode="v" horiz-adv-x="915" d="M23 1008h159l275 -809l276 809h160l-371 -1008h-131z" />
<glyph unicode="w" horiz-adv-x="1482" d="M23 1008h159l232 -809l264 809h127l266 -809l229 809h160l-317 -1008h-137l-265 782l-262 -782h-137z" />
<glyph unicode="x" horiz-adv-x="978" d="M68 0l342 514l-328 494h178l232 -373l227 373h178l-328 -494l342 -514h-178l-241 391l-246 -391h-178z" />
<glyph unicode="y" horiz-adv-x="915" d="M23 1008h159l277 -809l274 809h160l-459 -1252q-28 -77 -72 -118q-73 -70 -196 -70h-64v131h45q74 0 107 26.5t59 98.5l72 196z" />
<glyph unicode="z" horiz-adv-x="940" d="M102 0v127l562 750h-531v131h701v-125l-564 -752h564v-131h-732z" />
<glyph unicode="{" horiz-adv-x="724" d="M98 664v131h54q56 0 92 36q37 37 37 123v392q0 79 13.5 123.5t47.5 78.5q62 62 207 62h76v-131h-47q-94 0 -121 -27q-17 -17 -23 -46.5t-6 -86.5v-385q0 -82 -32.5 -128.5t-96.5 -76.5q64 -30 96.5 -76.5t32.5 -128.5v-385q0 -57 6 -86.5t23 -46.5q15 -15 41 -20.5 t80 -5.5h47v-132h-76q-145 0 -207 62q-34 34 -47.5 79t-13.5 124v391q0 86 -37 123t-92 37h-54z" />
<glyph unicode="|" horiz-adv-x="667" d="M260 -152v1762h148v-1762h-148z" />
<glyph unicode="}" horiz-adv-x="724" d="M98 -20h49q54 0 79 5.5t40 20.5q31 31 31 133v385q0 82 32.5 128.5t96.5 76.5q-64 30 -96.5 76.5t-32.5 128.5v385q0 102 -31 133q-15 15 -40.5 21t-78.5 6h-49v131h78q145 0 207 -62q34 -34 47.5 -78.5t13.5 -123.5v-392q0 -86 37 -123q36 -36 92 -36h52v-131h-52 q-55 0 -92 -37t-37 -123v-391q0 -79 -13.5 -124t-47.5 -79q-62 -62 -207 -62h-78v132z" />
<glyph unicode="~" horiz-adv-x="1103" d="M100 543q84 84 138.5 111.5t126.5 27.5q34 0 73 -10t65.5 -20.5t76.5 -33.5q103 -49 159 -49q45 0 80 18t92 75l93 -93q-84 -84 -138.5 -111.5t-126.5 -27.5q-34 0 -73 10t-67 21t-77 33q-103 49 -160 49q-46 0 -80.5 -17.5t-91.5 -74.5z" />
<glyph unicode="&#xa1;" horiz-adv-x="647" d="M203 836v172h176v-172h-176zM207 -451l20 1049h127l23 -1049h-170z" />
<glyph unicode="&#xa2;" horiz-adv-x="1019" d="M129 750q0 218 99.5 351.5t271.5 158.5v198h121v-194q91 -6 158.5 -40.5t138.5 -111.5l-101 -94q-51 57 -97 82t-108 30v-761q62 5 108 30t97 82l101 -94q-70 -76 -138 -110.5t-159 -40.5v-236h-121v240q-172 25 -271.5 158.5t-99.5 351.5zM276 750q0 -176 68 -271 q63 -88 164 -106v753q-101 -18 -164 -106q-68 -95 -68 -270z" />
<glyph unicode="&#xa3;" horiz-adv-x="1122" d="M96 676v110h129v230q0 208 127 331t330 123t334 -131l-107 -104q-48 48 -96.5 72t-130.5 24q-143 0 -221 -87.5t-78 -248.5v-209h299v-110h-299v-537h633v-139h-791v676h-129z" />
<glyph unicode="&#xa4;" horiz-adv-x="1351" d="M160 133l151 152q-90 121 -90 270t90 270l-151 150l94 94l152 -149q118 88 270 88q150 0 268 -88l154 149l94 -94l-152 -150q90 -121 90 -270t-90 -270l152 -152l-94 -94l-154 151q-121 -90 -268 -90q-149 0 -270 90l-152 -151zM356 555q0 -132 94 -225.5t226 -93.5 t224.5 93.5t92.5 225.5t-92.5 224.5t-224.5 92.5t-226 -92.5t-94 -224.5z" />
<glyph unicode="&#xa5;" horiz-adv-x="1052" d="M16 1458h168l344 -698l342 698h166l-321 -637h205v-110h-261l-53 -109v-106h314v-113h-314v-383h-157v383h-316v113h316v106l-54 109h-262v110h205z" />
<glyph unicode="&#xa6;" horiz-adv-x="686" d="M260 -152v717h148v-717h-148zM260 893v717h148v-717h-148z" />
<glyph unicode="&#xa7;" horiz-adv-x="1140" d="M178 516q0 118 61.5 205t153.5 131q-93 42 -141.5 109t-48.5 174q0 149 103 242t265 93t264.5 -86.5t108.5 -234.5h-147q-14 190 -226 190q-104 0 -162.5 -52t-58.5 -150q0 -148 172 -197l160 -45q133 -38 207 -137.5t74 -237.5q0 -118 -61 -205t-152 -131 q91 -33 144.5 -109.5t53.5 -185.5q0 -157 -108 -254.5t-269 -97.5q-160 0 -269 86t-118 244h150q9 -94 71 -144.5t166 -50.5q105 0 166.5 56.5t61.5 158.5q0 72 -48 128.5t-133 80.5l-159 45q-134 38 -207.5 136.5t-73.5 238.5zM328 518q0 -114 67 -188q68 -74 176 -74 q109 0 177 74q65 71 65 188q0 124 -65 189q-73 73 -177 73q-109 0 -176 -73t-67 -189z" />
<glyph unicode="&#xa8;" horiz-adv-x="1024" d="M221 1233v182h148v-182h-148zM655 1233v182h148v-182h-148z" />
<glyph unicode="&#xa9;" horiz-adv-x="1804" d="M160 729q0 151 58.5 288.5t157.5 236.5t236.5 157.5t288.5 58.5t288.5 -58.5t236.5 -157.5t157.5 -236.5t58.5 -288.5t-58.5 -288.5t-157.5 -236.5t-236.5 -157.5t-288.5 -58.5t-288.5 58.5t-236.5 157.5t-157.5 236.5t-58.5 288.5zM281 729q0 -128 49 -244.5t131.5 -201 t197.5 -135t242 -50.5q169 0 312.5 85t227 230.5t83.5 315.5t-83.5 315.5t-227 230.5t-312.5 85q-127 0 -242 -50.5t-197.5 -135t-131.5 -201t-49 -244.5zM547 729q0 186 95.5 302t268.5 116q83 0 143 -25.5t126 -83.5l-74 -73q-51 44 -94.5 61.5t-100.5 17.5 q-89 0 -146.5 -44t-80 -112t-22.5 -159q0 -141 59 -227t190 -86q58 0 101.5 17t93.5 61l74 -74q-62 -56 -123.5 -81.5t-145.5 -25.5q-174 0 -269 115t-95 301z" />
<glyph unicode="&#xaa;" horiz-adv-x="919" d="M115 879q0 107 72 170t204 63h236v74q0 88 -46 130t-153 42q-76 0 -120.5 -19.5t-80.5 -70.5l-84 75q54 69 120.5 96t166.5 27q159 0 238.5 -69t79.5 -201v-543h-119v74q-47 -46 -98.5 -65t-129.5 -19q-82 0 -134 17.5t-91 56.5q-61 64 -61 162zM236 883q0 -68 42 -100.5 t134 -32.5q61 0 102 9.5t74 41.5q39 36 39 137v82h-219q-172 0 -172 -137z" />
<glyph unicode="&#xab;" horiz-adv-x="1134" d="M82 549l430 430v-184l-246 -246l246 -248v-182zM545 549l430 430v-184l-248 -246l248 -248v-182z" />
<glyph unicode="&#xac;" d="M104 492v137h861v-418h-138v281h-723z" />
<glyph unicode="&#xad;" horiz-adv-x="872" d="M156 483v138h561v-138h-561z" />
<glyph unicode="&#xae;" horiz-adv-x="1804" d="M160 729q0 151 58.5 288.5t157.5 236.5t236.5 157.5t288.5 58.5t288.5 -58.5t236.5 -157.5t157.5 -236.5t58.5 -288.5t-58.5 -288.5t-157.5 -236.5t-236.5 -157.5t-288.5 -58.5t-288.5 58.5t-236.5 157.5t-157.5 236.5t-58.5 288.5zM279 729q0 -128 49 -245t132.5 -202 t198.5 -135.5t242 -50.5q169 0 313 85t228 231t84 317t-84 317t-228 231t-313 85q-127 0 -242 -50.5t-198.5 -135.5t-132.5 -202t-49 -245zM659 324v813h277q106 0 181 -71t75 -173q0 -85 -47.5 -141.5t-126.5 -81.5l194 -346h-131l-186 331h-123v-331h-113zM772 752h152 q67 0 110 39.5t43 101.5t-43 102.5t-110 40.5h-152v-284z" />
<glyph unicode="&#xaf;" horiz-adv-x="1024" d="M203 1257v117h618v-117h-618z" />
<glyph unicode="&#xb0;" horiz-adv-x="948" d="M137 1141q0 139 99 237.5t239 98.5q139 0 237.5 -98.5t98.5 -237.5t-98.5 -237.5t-237.5 -98.5q-140 0 -239 98.5t-99 237.5zM262 1141q0 -92 61 -154.5t152 -62.5t151 62t60 155q0 92 -61 154.5t-152 62.5t-151 -62t-60 -155z" />
<glyph unicode="&#xb1;" d="M106 0v137h857v-137h-857zM106 592v137h361v358h137v-358h359v-137h-359v-363h-137v363h-361z" />
<glyph unicode="&#xb2;" horiz-adv-x="700" d="M98 584v106l338 414q47 58 47 119q0 62 -35.5 99.5t-97.5 37.5q-58 0 -95.5 -33.5t-37.5 -103.5h-119q0 109 70.5 176t181.5 67q112 0 182 -66t70 -177q0 -54 -18.5 -94.5t-61.5 -94.5l-282 -344h362v-106h-504z" />
<glyph unicode="&#xb3;" horiz-adv-x="729" d="M98 817h119q3 -68 45.5 -102.5t104.5 -34.5q65 0 106 40t41 109q0 70 -39.5 110t-114.5 40h-18v102h18q69 0 104.5 37.5t35.5 102.5q0 66 -38.5 102.5t-96.5 36.5q-60 0 -96.5 -34.5t-41.5 -94.5h-116q6 108 77.5 171.5t176.5 63.5q111 0 181 -67.5t70 -175.5 q0 -137 -110 -189q125 -53 125 -205q0 -121 -75 -188.5t-189 -67.5q-72 0 -130.5 25t-97 81.5t-41.5 137.5z" />
<glyph unicode="&#xb4;" horiz-adv-x="1024" d="M412 1217l180 313h176l-221 -313h-135z" />
<glyph unicode="&#xb5;" horiz-adv-x="1148" d="M170 -451v1459h147v-621q0 -131 66 -199.5t182 -68.5q117 0 184.5 69.5t67.5 198.5v621h148v-1008h-148v113q-110 -125 -282 -125q-137 0 -218 75v-514h-147z" />
<glyph unicode="&#xb6;" horiz-adv-x="1234" d="M86 1061q0 170 119.5 283.5t324.5 113.5h494v-1909h-147v1770h-240v-1770h-148v1119q-119 0 -212.5 56.5t-142 145.5t-48.5 191z" />
<glyph unicode="&#xb7;" horiz-adv-x="552" d="M180 457v192h193v-192h-193z" />
<glyph unicode="&#xb8;" horiz-adv-x="1024" d="M358 -442l146 305h137l-121 -305h-162z" />
<glyph unicode="&#xb9;" horiz-adv-x="534" d="M88 1178v135l170 145h117v-874h-117v743z" />
<glyph unicode="&#xba;" horiz-adv-x="931" d="M137 1055q0 104 21 182.5t78 136.5q92 92 229 92t229 -92q57 -58 78 -136.5t21 -182.5q0 -106 -21 -184t-78 -136q-90 -90 -229 -90t-229 90q-57 58 -78 136t-21 184zM260 1055q0 -84 12 -144t50 -98q59 -59 143 -59t143 59q64 64 64 242q0 179 -64 243q-58 58 -143 58 t-143 -58q-38 -38 -50 -98.5t-12 -144.5z" />
<glyph unicode="&#xbb;" horiz-adv-x="1134" d="M160 119v182l248 248l-248 246v184l430 -430zM623 119v182l245 248l-245 246v184l430 -430z" />
<glyph unicode="&#xbc;" horiz-adv-x="1591" d="M88 1178v135l170 145h117v-874h-117v743zM354 0l682 1458h123l-682 -1458h-123zM946 131v109l309 634h127l-307 -634h223v215h115v-215h96v-109h-96v-131h-115v131h-352z" />
<glyph unicode="&#xbd;" horiz-adv-x="1617" d="M88 1178v135l170 145h117v-874h-117v743zM330 0l682 1458h123l-682 -1458h-123zM1016 0v106l338 414q47 58 47 119q0 62 -35.5 99.5t-97.5 37.5q-58 0 -95.5 -33.5t-37.5 -103.5h-119q0 109 70.5 176.5t181.5 67.5q112 0 182 -66.5t70 -177.5q0 -54 -18.5 -94t-61.5 -94 l-281 -345h361v-106h-504z" />
<glyph unicode="&#xbe;" horiz-adv-x="1683" d="M98 817h119q3 -68 45.5 -102.5t104.5 -34.5q65 0 106 40t41 109q0 70 -39.5 110t-114.5 40h-18v102h18q69 0 104.5 37.5t35.5 102.5q0 66 -38.5 102.5t-96.5 36.5q-60 0 -96.5 -34.5t-41.5 -94.5h-116q6 108 77.5 171.5t176.5 63.5q111 0 181 -67.5t70 -175.5 q0 -137 -110 -189q125 -53 125 -205q0 -121 -75 -188.5t-189 -67.5q-72 0 -130.5 25t-97 81.5t-41.5 137.5zM461 0l684 1458h123l-684 -1458h-123zM1038 131v109l310 634h127l-310 -634h226v215h114v-215h97v-109h-97v-131h-114v131h-353z" />
<glyph unicode="&#xbf;" horiz-adv-x="1017" d="M94 -88q0 66 23.5 121.5t70.5 124.5l168 241q37 55 37 119v82h148v-84q0 -57 -16 -100t-50 -92l-166 -238q-34 -50 -50.5 -88t-16.5 -86q0 -103 67.5 -172.5t169.5 -69.5q105 0 170.5 71t65.5 171h147q0 -158 -109.5 -266.5t-273.5 -108.5q-163 0 -274 106t-111 269z M379 836v172h174v-172h-174z" />
<glyph unicode="&#xc0;" horiz-adv-x="1251" d="M25 0l536 1458h131l535 -1458h-166l-117 330h-637l-117 -330h-165zM354 465h545l-270 770zM362 1913h177l180 -314h-135z" />
<glyph unicode="&#xc1;" horiz-adv-x="1251" d="M25 0l536 1458h131l535 -1458h-166l-117 330h-637l-117 -330h-165zM354 465h545l-270 770zM518 1599l180 314h176l-221 -314h-135z" />
<glyph unicode="&#xc2;" horiz-adv-x="1251" d="M25 0l536 1458h131l535 -1458h-166l-117 330h-637l-117 -330h-165zM293 1599l256 314h139l256 -314h-141l-185 213l-184 -213h-141zM354 465h545l-270 770z" />
<glyph unicode="&#xc3;" horiz-adv-x="1251" d="M25 0l536 1458h131l535 -1458h-166l-117 330h-637l-117 -330h-165zM289 1726q63 63 106.5 84t87.5 21q41 0 72 -11.5t74 -37.5q65 -41 114 -41q28 0 54.5 12.5t66.5 52.5l76 -73q-63 -63 -108 -84t-87 -21q-66 0 -145 47q-73 43 -115 43q-29 0 -53.5 -11.5t-66.5 -53.5z M354 465h545l-270 770z" />
<glyph unicode="&#xc4;" horiz-adv-x="1251" d="M25 0l536 1458h131l535 -1458h-166l-117 330h-637l-117 -330h-165zM328 1616v182h147v-182h-147zM354 465h545l-270 770zM762 1616v182h147v-182h-147z" />
<glyph unicode="&#xc5;" horiz-adv-x="1251" d="M25 0l536 1458h131l535 -1458h-166l-117 330h-637l-117 -330h-165zM354 465h545l-270 770zM377 1776q0 100 70.5 170.5t170.5 70.5t171 -70t71 -171q0 -100 -71 -172t-171 -72q-99 0 -170 72t-71 172zM477 1776q0 -59 41.5 -100.5t99.5 -41.5t100 42t42 100t-41.5 98.5 t-100.5 40.5t-100 -40.5t-41 -98.5z" />
<glyph unicode="&#xc6;" horiz-adv-x="1888" d="M16 0l770 1458h990v-139h-750v-518h639v-139h-639v-523h750v-139h-904v346h-505l-181 -346h-170zM434 481h438v838z" />
<glyph unicode="&#xc7;" horiz-adv-x="1304" d="M156 729q0 85 0.5 124.5t3 102t7.5 93.5t14.5 76t24.5 73t36.5 60t50.5 61q151 151 373 151q198 0 333.5 -115t171.5 -319h-159q-30 136 -121 215.5t-225 79.5q-73 0 -139 -26.5t-113 -75.5q-66 -68 -84.5 -164t-18.5 -336t18.5 -336t84.5 -164q47 -49 113 -75.5 t139 -26.5q135 0 227.5 80t122.5 215h155q-35 -203 -171.5 -318.5t-333.5 -115.5q-222 0 -373 151q-29 29 -50.5 61t-36.5 60t-24.5 73t-14.5 76t-7.5 93.5t-3 102t-0.5 124.5zM475 -442l146 305h137l-121 -305h-162z" />
<glyph unicode="&#xc8;" horiz-adv-x="1228" d="M211 0v1458h905v-139h-749v-514h639v-139h-639v-527h749v-139h-905zM385 1913h176l180 -314h-135z" />
<glyph unicode="&#xc9;" horiz-adv-x="1228" d="M211 0v1458h905v-139h-749v-514h639v-139h-639v-527h749v-139h-905zM541 1599l180 314h176l-221 -314h-135z" />
<glyph unicode="&#xca;" horiz-adv-x="1228" d="M211 0v1458h905v-139h-749v-514h639v-139h-639v-527h749v-139h-905zM315 1599l256 314h140l256 -314h-142l-184 213l-184 -213h-142z" />
<glyph unicode="&#xcb;" horiz-adv-x="1228" d="M211 0v1458h905v-139h-749v-514h639v-139h-639v-527h749v-139h-905zM350 1616v182h148v-182h-148zM784 1616v182h148v-182h-148z" />
<glyph unicode="&#xcc;" horiz-adv-x="577" d="M211 0v1458h156v-1458h-156zM211 1913h176l180 -314h-135z" />
<glyph unicode="&#xcd;" horiz-adv-x="577" d="M211 0v1458h156v-1458h-156zM211 1599l180 314h176l-221 -314h-135z" />
<glyph unicode="&#xce;" horiz-adv-x="577" d="M211 0v1458h156v-1458h-156zM211 1599l256 314h139l256 -314h-141l-184 213l-185 -213h-141z" />
<glyph unicode="&#xcf;" horiz-adv-x="577" d="M211 0v1458h156v-1458h-156zM211 1616v182h147v-182h-147zM645 1616v182h148v-182h-148z" />
<glyph unicode="&#xd0;" horiz-adv-x="1406" d="M80 676v121h160v661h501q276 0 420 -219q61 -94 75.5 -180t14.5 -330q0 -250 -16 -340.5t-74 -173.5q-71 -99 -180 -157t-252 -58h-489v676h-160zM397 137h316q216 0 319 152q43 66 53.5 140t10.5 292q0 219 -12 301.5t-62 151.5q-58 78 -131.5 112.5t-177.5 34.5h-316 v-524h330v-121h-330v-539z" />
<glyph unicode="&#xd1;" horiz-adv-x="1499" d="M211 0v1458h147l775 -1165v1165h155v-1458h-147l-774 1169v-1169h-156zM420 1726q63 63 106.5 84t87.5 21q41 0 72 -11.5t74 -37.5q65 -41 114 -41q28 0 54.5 12.5t66.5 52.5l76 -73q-63 -63 -107.5 -84t-86.5 -21q-67 0 -146 47q-73 43 -115 43q-29 0 -53.5 -11.5 t-66.5 -53.5z" />
<glyph unicode="&#xd2;" horiz-adv-x="1331" d="M156 729q0 85 0.5 124.5t3 102t7.5 93.5t14.5 76t24.5 73t36.5 60t50.5 61q151 151 373 151q221 0 372 -151q34 -34 57.5 -68t39 -79.5t24 -81t12.5 -103.5t4.5 -114.5t0.5 -143.5t-0.5 -143.5t-4.5 -114.5t-12.5 -103.5t-24 -81t-39 -79.5t-57.5 -68 q-151 -151 -372 -151q-222 0 -373 151q-29 29 -50.5 61t-36.5 60t-24.5 73t-14.5 76t-7.5 93.5t-3 102t-0.5 124.5zM311 729q0 -239 18 -334.5t85 -163.5q47 -49 113.5 -76.5t138.5 -27.5t138.5 27.5t113.5 76.5q66 68 84 163t18 335t-18 335t-84 163q-47 49 -113.5 76.5 t-138.5 27.5t-138.5 -27.5t-113.5 -76.5q-67 -68 -85 -163.5t-18 -334.5zM410 1913h176l180 -314h-135z" />
<glyph unicode="&#xd3;" horiz-adv-x="1331" d="M156 729q0 85 0.5 124.5t3 102t7.5 93.5t14.5 76t24.5 73t36.5 60t50.5 61q151 151 373 151q221 0 372 -151q34 -34 57.5 -68t39 -79.5t24 -81t12.5 -103.5t4.5 -114.5t0.5 -143.5t-0.5 -143.5t-4.5 -114.5t-12.5 -103.5t-24 -81t-39 -79.5t-57.5 -68 q-151 -151 -372 -151q-222 0 -373 151q-29 29 -50.5 61t-36.5 60t-24.5 73t-14.5 76t-7.5 93.5t-3 102t-0.5 124.5zM311 729q0 -239 18 -334.5t85 -163.5q47 -49 113.5 -76.5t138.5 -27.5t138.5 27.5t113.5 76.5q66 68 84 163t18 335t-18 335t-84 163q-47 49 -113.5 76.5 t-138.5 27.5t-138.5 -27.5t-113.5 -76.5q-67 -68 -85 -163.5t-18 -334.5zM565 1599l180 314h177l-222 -314h-135z" />
<glyph unicode="&#xd4;" horiz-adv-x="1331" d="M156 729q0 85 0.5 124.5t3 102t7.5 93.5t14.5 76t24.5 73t36.5 60t50.5 61q151 151 373 151q221 0 372 -151q34 -34 57.5 -68t39 -79.5t24 -81t12.5 -103.5t4.5 -114.5t0.5 -143.5t-0.5 -143.5t-4.5 -114.5t-12.5 -103.5t-24 -81t-39 -79.5t-57.5 -68 q-151 -151 -372 -151q-222 0 -373 151q-29 29 -50.5 61t-36.5 60t-24.5 73t-14.5 76t-7.5 93.5t-3 102t-0.5 124.5zM311 729q0 -239 18 -334.5t85 -163.5q47 -49 113.5 -76.5t138.5 -27.5t138.5 27.5t113.5 76.5q66 68 84 163t18 335t-18 335t-84 163q-47 49 -113.5 76.5 t-138.5 27.5t-138.5 -27.5t-113.5 -76.5q-67 -68 -85 -163.5t-18 -334.5zM340 1599l256 314h139l256 -314h-141l-184 213l-185 -213h-141z" />
<glyph unicode="&#xd5;" horiz-adv-x="1331" d="M156 729q0 85 0.5 124.5t3 102t7.5 93.5t14.5 76t24.5 73t36.5 60t50.5 61q151 151 373 151q221 0 372 -151q34 -34 57.5 -68t39 -79.5t24 -81t12.5 -103.5t4.5 -114.5t0.5 -143.5t-0.5 -143.5t-4.5 -114.5t-12.5 -103.5t-24 -81t-39 -79.5t-57.5 -68 q-151 -151 -372 -151q-222 0 -373 151q-29 29 -50.5 61t-36.5 60t-24.5 73t-14.5 76t-7.5 93.5t-3 102t-0.5 124.5zM311 729q0 -239 18 -334.5t85 -163.5q47 -49 113.5 -76.5t138.5 -27.5t138.5 27.5t113.5 76.5q66 68 84 163t18 335t-18 335t-84 163q-47 49 -113.5 76.5 t-138.5 27.5t-138.5 -27.5t-113.5 -76.5q-67 -68 -85 -163.5t-18 -334.5zM336 1726q63 63 106.5 84t87.5 21q41 0 72 -11.5t74 -37.5q65 -41 115 -41q28 0 54 12.5t66 52.5l76 -73q-63 -63 -107.5 -84t-86.5 -21q-67 0 -146 47q-73 43 -115 43q-29 0 -53.5 -11.5 t-66.5 -53.5z" />
<glyph unicode="&#xd6;" horiz-adv-x="1331" d="M156 729q0 85 0.5 124.5t3 102t7.5 93.5t14.5 76t24.5 73t36.5 60t50.5 61q151 151 373 151q221 0 372 -151q34 -34 57.5 -68t39 -79.5t24 -81t12.5 -103.5t4.5 -114.5t0.5 -143.5t-0.5 -143.5t-4.5 -114.5t-12.5 -103.5t-24 -81t-39 -79.5t-57.5 -68 q-151 -151 -372 -151q-222 0 -373 151q-29 29 -50.5 61t-36.5 60t-24.5 73t-14.5 76t-7.5 93.5t-3 102t-0.5 124.5zM311 729q0 -239 18 -334.5t85 -163.5q47 -49 113.5 -76.5t138.5 -27.5t138.5 27.5t113.5 76.5q66 68 84 163t18 335t-18 335t-84 163q-47 49 -113.5 76.5 t-138.5 27.5t-138.5 -27.5t-113.5 -76.5q-67 -68 -85 -163.5t-18 -334.5zM375 1616v182h147v-182h-147zM809 1616v182h147v-182h-147z" />
<glyph unicode="&#xd7;" d="M133 244l309 309l-309 309l92 92l310 -311l309 311l92 -92l-311 -309l311 -309l-92 -92l-309 309l-310 -309z" />
<glyph unicode="&#xd8;" horiz-adv-x="1335" d="M156 729q0 85 0.5 124.5t3 102t7.5 93.5t14.5 76t24.5 73t36.5 60t50.5 61q151 151 373 151q145 0 256 -63l69 141h133l-102 -213l16 -16q34 -34 57.5 -68t39 -79.5t24 -81t12.5 -103.5t4.5 -114.5t0.5 -143.5t-0.5 -143.5t-4.5 -114.5t-12.5 -103.5t-24 -81t-39 -79.5 t-57.5 -68q-151 -151 -372 -151q-143 0 -258 65l-68 -143h-133l102 213l-16 16q-29 29 -50.5 61t-36.5 60t-24.5 73t-14.5 76t-7.5 93.5t-3 102t-0.5 124.5zM311 729q0 -211 13.5 -305t58.5 -156l479 1004q-91 59 -196 59q-72 0 -138.5 -27.5t-113.5 -76.5 q-67 -68 -85 -163.5t-18 -334.5zM469 186q91 -59 197 -59q72 0 138.5 27.5t113.5 76.5q66 67 83 161.5t17 336.5q0 214 -12.5 307t-57.5 154z" />
<glyph unicode="&#xd9;" horiz-adv-x="1396" d="M190 481v977h156v-964q0 -166 96 -266.5t256 -100.5t257.5 100.5t97.5 266.5v964h155v-977q0 -217 -144 -355t-366 -138t-365 138t-143 355zM442 1913h176l181 -314h-135z" />
<glyph unicode="&#xda;" horiz-adv-x="1396" d="M190 481v977h156v-964q0 -166 96 -266.5t256 -100.5t257.5 100.5t97.5 266.5v964h155v-977q0 -217 -144 -355t-366 -138t-365 138t-143 355zM598 1599l180 314h176l-221 -314h-135z" />
<glyph unicode="&#xdb;" horiz-adv-x="1396" d="M190 481v977h156v-964q0 -166 96 -266.5t256 -100.5t257.5 100.5t97.5 266.5v964h155v-977q0 -217 -144 -355t-366 -138t-365 138t-143 355zM373 1599l256 314h139l256 -314h-141l-185 213l-184 -213h-141z" />
<glyph unicode="&#xdc;" horiz-adv-x="1396" d="M190 481v977h156v-964q0 -166 96 -266.5t256 -100.5t257.5 100.5t97.5 266.5v964h155v-977q0 -217 -144 -355t-366 -138t-365 138t-143 355zM408 1616v182h147v-182h-147zM842 1616v182h147v-182h-147z" />
<glyph unicode="&#xdd;" horiz-adv-x="1054" d="M16 1458h168l344 -698l340 698h168l-430 -856v-602h-155v602zM426 1599l180 314h176l-221 -314h-135z" />
<glyph unicode="&#xde;" horiz-adv-x="1314" d="M211 0v1458h156v-293h387q201 0 325.5 -117.5t124.5 -312.5t-124.5 -311.5t-325.5 -116.5h-387v-307h-156zM367 446h372q141 0 225.5 74t84.5 215t-84.5 215t-225.5 74h-372v-578z" />
<glyph unicode="&#xdf;" horiz-adv-x="1138" d="M184 0v1073q0 190 110.5 295t301.5 105q83 0 153.5 -20.5t125 -60.5t85.5 -106.5t31 -152.5q0 -161 -129 -244q73 -40 101 -93.5t28 -152.5v-354q0 -141 -80 -215t-211 -74h-110v127h82q43 0 68.5 9t52.5 32q51 42 51 137v346q0 84 -43 127t-121 43h-90v123h74 q80 0 130 50.5t50 135.5q0 93 -64 154q-62 59 -192 59q-131 0 -192.5 -73t-61.5 -203v-1067h-150z" />
<glyph unicode="&#xe0;" horiz-adv-x="1077" d="M104 285q0 134 91.5 212t257.5 78h303v97q0 112 -61 166.5t-197 54.5q-96 0 -153 -26t-101 -89l-101 92q65 85 147 117.5t210 32.5q201 0 302 -85.5t101 -250.5v-684h-147v96q-61 -61 -125 -84.5t-166 -23.5q-105 0 -171.5 21.5t-113.5 70.5q-76 76 -76 205zM248 287 q0 -88 56 -130t175 -42q78 0 130.5 12.5t95.5 54.5q51 48 51 174v109h-283q-225 0 -225 -178zM260 1530h176l180 -313h-135z" />
<glyph unicode="&#xe1;" horiz-adv-x="1077" d="M104 285q0 134 91.5 212t257.5 78h303v97q0 112 -61 166.5t-197 54.5q-96 0 -153 -26t-101 -89l-101 92q65 85 147 117.5t210 32.5q201 0 302 -85.5t101 -250.5v-684h-147v96q-61 -61 -125 -84.5t-166 -23.5q-105 0 -171.5 21.5t-113.5 70.5q-76 76 -76 205zM248 287 q0 -88 56 -130t175 -42q78 0 130.5 12.5t95.5 54.5q51 48 51 174v109h-283q-225 0 -225 -178zM416 1217l180 313h176l-221 -313h-135z" />
<glyph unicode="&#xe2;" horiz-adv-x="1077" d="M104 285q0 134 91.5 212t257.5 78h303v97q0 112 -61 166.5t-197 54.5q-96 0 -153 -26t-101 -89l-101 92q65 85 147 117.5t210 32.5q201 0 302 -85.5t101 -250.5v-684h-147v96q-61 -61 -125 -84.5t-166 -23.5q-105 0 -171.5 21.5t-113.5 70.5q-76 76 -76 205zM190 1217 l256 313h140l256 -313h-142l-184 213l-184 -213h-142zM248 287q0 -88 56 -130t175 -42q78 0 130.5 12.5t95.5 54.5q51 48 51 174v109h-283q-225 0 -225 -178z" />
<glyph unicode="&#xe3;" horiz-adv-x="1077" d="M104 285q0 134 91.5 212t257.5 78h303v97q0 112 -61 166.5t-197 54.5q-96 0 -153 -26t-101 -89l-101 92q65 85 147 117.5t210 32.5q201 0 302 -85.5t101 -250.5v-684h-147v96q-61 -61 -125 -84.5t-166 -23.5q-105 0 -171.5 21.5t-113.5 70.5q-76 76 -76 205zM186 1343 q63 63 107 84t88 21q41 0 71 -11.5t74 -37.5q65 -41 115 -41q28 0 54.5 12.5t66.5 52.5l76 -73q-63 -63 -108 -84t-87 -21q-66 0 -145 47q-73 43 -115 43q-29 0 -54 -11.5t-67 -53.5zM248 287q0 -88 56 -130t175 -42q78 0 130.5 12.5t95.5 54.5q51 48 51 174v109h-283 q-225 0 -225 -178z" />
<glyph unicode="&#xe4;" horiz-adv-x="1077" d="M104 285q0 134 91.5 212t257.5 78h303v97q0 112 -61 166.5t-197 54.5q-96 0 -153 -26t-101 -89l-101 92q65 85 147 117.5t210 32.5q201 0 302 -85.5t101 -250.5v-684h-147v96q-61 -61 -125 -84.5t-166 -23.5q-105 0 -171.5 21.5t-113.5 70.5q-76 76 -76 205zM225 1233 v182h148v-182h-148zM248 287q0 -88 56 -130t175 -42q78 0 130.5 12.5t95.5 54.5q51 48 51 174v109h-283q-225 0 -225 -178zM659 1233v182h148v-182h-148z" />
<glyph unicode="&#xe5;" horiz-adv-x="1077" d="M104 285q0 134 91.5 212t257.5 78h303v97q0 112 -61 166.5t-197 54.5q-96 0 -153 -26t-101 -89l-101 92q65 85 147 117.5t210 32.5q201 0 302 -85.5t101 -250.5v-684h-147v96q-61 -61 -125 -84.5t-166 -23.5q-105 0 -171.5 21.5t-113.5 70.5q-76 76 -76 205zM248 287 q0 -88 56 -130t175 -42q78 0 130.5 12.5t95.5 54.5q51 48 51 174v109h-283q-225 0 -225 -178zM274 1407q0 100 71 171t171 71t171 -70.5t71 -171.5q0 -100 -71 -172t-171 -72t-171 72t-71 172zM375 1407q0 -59 41.5 -100t99.5 -41t99.5 41t41.5 100q0 58 -41 98.5t-100 40.5 t-100 -40.5t-41 -98.5z" />
<glyph unicode="&#xe6;" horiz-adv-x="1710" d="M104 285q0 134 91.5 212t257.5 78h303v97q0 112 -61 166.5t-197 54.5q-96 0 -153 -26t-101 -89l-101 92q65 85 147 117.5t210 32.5q270 0 354 -158q108 158 315 158q194 0 304 -131t110 -357v-67h-682q0 -166 77.5 -257t221.5 -91q85 0 142.5 26t119.5 88l103 -88 q-81 -81 -165 -118t-208 -37q-250 0 -358 174q-68 -97 -152 -135.5t-217 -38.5q-105 0 -171.5 21.5t-113.5 70.5q-76 76 -76 205zM248 287q0 -88 56 -130t175 -42q78 0 130.5 12.5t95.5 54.5q51 48 51 174v109h-283q-225 0 -225 -178zM901 575h535q-3 64 -8.5 96t-22.5 72 q-29 69 -93 110.5t-143 41.5t-142.5 -41.5t-92.5 -110.5q-17 -41 -23.5 -73.5t-9.5 -94.5z" />
<glyph unicode="&#xe7;" horiz-adv-x="1011" d="M129 504q0 249 123.5 382.5t322.5 133.5q106 0 180.5 -33t151.5 -117l-100 -94q-57 63 -108.5 88t-123.5 25q-153 0 -233 -115q-35 -50 -50.5 -112.5t-15.5 -157.5t15.5 -158t50.5 -113q79 -114 233 -114q72 0 123.5 25.5t108.5 88.5l100 -96q-77 -83 -151.5 -116 t-180.5 -33q-199 0 -322.5 133.5t-123.5 382.5zM358 -442l146 305h137l-121 -305h-162z" />
<glyph unicode="&#xe8;" horiz-adv-x="1085" d="M129 504q0 243 110.5 379.5t303.5 136.5q194 0 303.5 -131t109.5 -357v-67h-680q0 -167 76.5 -257.5t220.5 -90.5q86 0 144.5 26t120.5 88l100 -88q-81 -81 -163.5 -118t-205.5 -37q-207 0 -323.5 128.5t-116.5 387.5zM276 575h533q-3 64 -8.5 96t-22.5 72 q-29 69 -92.5 110.5t-142.5 41.5t-143 -41.5t-93 -110.5q-17 -40 -22.5 -72t-8.5 -96zM293 1530h176l180 -313h-135z" />
<glyph unicode="&#xe9;" horiz-adv-x="1085" d="M129 504q0 243 110.5 379.5t303.5 136.5q194 0 303.5 -131t109.5 -357v-67h-680q0 -167 76.5 -257.5t220.5 -90.5q86 0 144.5 26t120.5 88l100 -88q-81 -81 -163.5 -118t-205.5 -37q-207 0 -323.5 128.5t-116.5 387.5zM276 575h533q-3 64 -8.5 96t-22.5 72 q-29 69 -92.5 110.5t-142.5 41.5t-143 -41.5t-93 -110.5q-17 -40 -22.5 -72t-8.5 -96zM449 1217l180 313h176l-221 -313h-135z" />
<glyph unicode="&#xea;" horiz-adv-x="1085" d="M129 504q0 243 110.5 379.5t303.5 136.5q194 0 303.5 -131t109.5 -357v-67h-680q0 -167 76.5 -257.5t220.5 -90.5q86 0 144.5 26t120.5 88l100 -88q-81 -81 -163.5 -118t-205.5 -37q-207 0 -323.5 128.5t-116.5 387.5zM223 1217l256 313h139l256 -313h-141l-184 213 l-184 -213h-142zM276 575h533q-3 64 -8.5 96t-22.5 72q-29 69 -92.5 110.5t-142.5 41.5t-143 -41.5t-93 -110.5q-17 -40 -22.5 -72t-8.5 -96z" />
<glyph unicode="&#xeb;" horiz-adv-x="1085" d="M129 504q0 243 110.5 379.5t303.5 136.5q194 0 303.5 -131t109.5 -357v-67h-680q0 -167 76.5 -257.5t220.5 -90.5q86 0 144.5 26t120.5 88l100 -88q-81 -81 -163.5 -118t-205.5 -37q-207 0 -323.5 128.5t-116.5 387.5zM258 1233v182h148v-182h-148zM276 575h533 q-3 64 -8.5 96t-22.5 72q-29 69 -92.5 110.5t-142.5 41.5t-143 -41.5t-93 -110.5q-17 -40 -22.5 -72t-8.5 -96zM692 1233v182h148v-182h-148z" />
<glyph unicode="&#xec;" horiz-adv-x="518" d="M184 0v1008h148v-1008h-148zM184 1530h176l181 -313h-135z" />
<glyph unicode="&#xed;" horiz-adv-x="518" d="M184 0v1008h148v-1008h-148zM184 1217l181 313h176l-222 -313h-135z" />
<glyph unicode="&#xee;" horiz-adv-x="518" d="M184 0v1008h148v-1008h-148zM184 1217l256 313h140l256 -313h-142l-184 213l-184 -213h-142z" />
<glyph unicode="&#xef;" horiz-adv-x="518" d="M184 0v1008h148v-1008h-148zM184 1233v182h148v-182h-148zM618 1233v182h148v-182h-148z" />
<glyph unicode="&#xf0;" horiz-adv-x="1085" d="M135 500q0 133 25.5 231t95.5 168q95 98 250 107q97 4 153 -21l-118 203h-238v106h180l-96 168h154l96 -168h168v-106h-111l129 -227q79 -138 104 -230.5t25 -230.5q0 -132 -26 -230.5t-97 -169.5q-109 -112 -286 -112q-178 0 -287 112q-70 70 -95.5 168.5t-25.5 231.5z M283 500q0 -108 14.5 -182.5t64.5 -124.5q74 -74 181 -74q108 0 182 74q50 50 65 125t15 182q0 108 -15 183.5t-65 125.5q-74 74 -182 74q-107 0 -181 -74q-50 -50 -64.5 -125t-14.5 -184z" />
<glyph unicode="&#xf1;" horiz-adv-x="1150" d="M184 0v1008h148v-111q108 123 282 123q164 0 258 -94q105 -102 105 -281v-645h-148v621q0 131 -65.5 199.5t-181.5 68.5t-183 -69t-67 -199v-621h-148zM254 1343q63 63 107 84t88 21q41 0 71 -11.5t74 -37.5q65 -41 115 -41q28 0 54 12.5t66 52.5l76 -73 q-63 -63 -107.5 -84t-86.5 -21q-67 0 -146 47q-73 43 -114 43q-29 0 -54 -11.5t-67 -53.5z" />
<glyph unicode="&#xf2;" horiz-adv-x="1085" d="M131 504q0 132 26 230.5t97 170.5q115 115 289 115q173 0 288 -115q71 -72 97 -170.5t26 -230.5q0 -133 -26 -231.5t-97 -170.5q-114 -114 -288 -114q-175 0 -289 114q-71 72 -97 170.5t-26 231.5zM266 1530h176l181 -313h-136zM279 504q0 -107 15.5 -184t65.5 -127 q74 -74 183 -74q110 0 184 74q50 50 65 126.5t15 184.5t-15 184.5t-65 126.5q-74 74 -184 74q-109 0 -183 -74q-50 -50 -65.5 -127t-15.5 -184z" />
<glyph unicode="&#xf3;" horiz-adv-x="1085" d="M131 504q0 132 26 230.5t97 170.5q115 115 289 115q173 0 288 -115q71 -72 97 -170.5t26 -230.5q0 -133 -26 -231.5t-97 -170.5q-114 -114 -288 -114q-175 0 -289 114q-71 72 -97 170.5t-26 231.5zM279 504q0 -107 15.5 -184t65.5 -127q74 -74 183 -74q110 0 184 74 q50 50 65 126.5t15 184.5t-15 184.5t-65 126.5q-74 74 -184 74q-109 0 -183 -74q-50 -50 -65.5 -127t-15.5 -184zM442 1217l181 313h176l-221 -313h-136z" />
<glyph unicode="&#xf4;" horiz-adv-x="1085" d="M131 504q0 132 26 230.5t97 170.5q115 115 289 115q173 0 288 -115q71 -72 97 -170.5t26 -230.5q0 -133 -26 -231.5t-97 -170.5q-114 -114 -288 -114q-175 0 -289 114q-71 72 -97 170.5t-26 231.5zM217 1217l256 313h139l256 -313h-141l-184 213l-185 -213h-141zM279 504 q0 -107 15.5 -184t65.5 -127q74 -74 183 -74q110 0 184 74q50 50 65 126.5t15 184.5t-15 184.5t-65 126.5q-74 74 -184 74q-109 0 -183 -74q-50 -50 -65.5 -127t-15.5 -184z" />
<glyph unicode="&#xf5;" horiz-adv-x="1085" d="M131 504q0 132 26 230.5t97 170.5q115 115 289 115q173 0 288 -115q71 -72 97 -170.5t26 -230.5q0 -133 -26 -231.5t-97 -170.5q-114 -114 -288 -114q-175 0 -289 114q-71 72 -97 170.5t-26 231.5zM213 1343q63 63 107 84t88 21q41 0 71 -11.5t74 -37.5q65 -41 115 -41 q28 0 54 12.5t66 52.5l76 -73q-63 -63 -107.5 -84t-86.5 -21q-67 0 -146 47q-73 43 -114 43q-29 0 -54 -11.5t-67 -53.5zM279 504q0 -107 15.5 -184t65.5 -127q74 -74 183 -74q110 0 184 74q50 50 65 126.5t15 184.5t-15 184.5t-65 126.5q-74 74 -184 74q-109 0 -183 -74 q-50 -50 -65.5 -127t-15.5 -184z" />
<glyph unicode="&#xf6;" horiz-adv-x="1085" d="M131 504q0 132 26 230.5t97 170.5q115 115 289 115q173 0 288 -115q71 -72 97 -170.5t26 -230.5q0 -133 -26 -231.5t-97 -170.5q-114 -114 -288 -114q-175 0 -289 114q-71 72 -97 170.5t-26 231.5zM252 1233v182h147v-182h-147zM279 504q0 -107 15.5 -184t65.5 -127 q74 -74 183 -74q110 0 184 74q50 50 65 126.5t15 184.5t-15 184.5t-65 126.5q-74 74 -184 74q-109 0 -183 -74q-50 -50 -65.5 -127t-15.5 -184zM686 1233v182h148v-182h-148z" />
<glyph unicode="&#xf7;" d="M104 483v138h861v-138h-861zM446 100v176h177v-176h-177zM446 827v177h177v-177h-177z" />
<glyph unicode="&#xf8;" horiz-adv-x="1085" d="M131 504q0 132 26 230.5t97 170.5q115 115 289 115q122 0 215 -55l80 133h114l-116 -197q68 -71 93 -168.5t25 -228.5q0 -133 -26 -231.5t-97 -170.5q-114 -114 -288 -114q-122 0 -215 55l-78 -133h-117l117 196q-68 71 -93.5 169t-25.5 229zM279 504q0 -189 51 -273 l360 615q-61 43 -147 43q-109 0 -183 -74q-50 -50 -65.5 -127t-15.5 -184zM395 164q64 -45 148 -45q110 0 184 74q50 50 65 126.5t15 184.5q0 90 -9.5 156t-39.5 116z" />
<glyph unicode="&#xf9;" horiz-adv-x="1153" d="M174 365v643h148v-621q0 -131 64.5 -199.5t180.5 -68.5q117 0 184.5 69.5t67.5 198.5v621h148v-1008h-146v113q-110 -125 -284 -125q-167 0 -261 94q-102 99 -102 283zM313 1530h176l181 -313h-135z" />
<glyph unicode="&#xfa;" horiz-adv-x="1153" d="M174 365v643h148v-621q0 -131 64.5 -199.5t180.5 -68.5q117 0 184.5 69.5t67.5 198.5v621h148v-1008h-146v113q-110 -125 -284 -125q-167 0 -261 94q-102 99 -102 283zM469 1217l180 313h176l-221 -313h-135z" />
<glyph unicode="&#xfb;" horiz-adv-x="1153" d="M174 365v643h148v-621q0 -131 64.5 -199.5t180.5 -68.5q117 0 184.5 69.5t67.5 198.5v621h148v-1008h-146v113q-110 -125 -284 -125q-167 0 -261 94q-102 99 -102 283zM244 1217l256 313h139l256 -313h-141l-185 213l-184 -213h-141z" />
<glyph unicode="&#xfc;" horiz-adv-x="1153" d="M174 365v643h148v-621q0 -131 64.5 -199.5t180.5 -68.5q117 0 184.5 69.5t67.5 198.5v621h148v-1008h-146v113q-110 -125 -284 -125q-167 0 -261 94q-102 99 -102 283zM279 1233v182h147v-182h-147zM713 1233v182h147v-182h-147z" />
<glyph unicode="&#xfd;" horiz-adv-x="913" d="M23 1008h159l277 -809l274 809h160l-459 -1252q-28 -77 -72 -118q-73 -70 -196 -70h-64v131h45q74 0 107 26.5t59 98.5l72 196zM356 1217l181 313h176l-221 -313h-136z" />
<glyph unicode="&#xfe;" horiz-adv-x="1118" d="M184 -451v1909h148v-567q58 73 125.5 101t158.5 28q75 0 140.5 -24t105.5 -64q123 -123 123 -428t-123 -428q-40 -40 -105.5 -64t-140.5 -24q-90 0 -158 28.5t-126 102.5v-570h-148zM332 504q0 -65 5 -116t21.5 -103.5t43.5 -87t73.5 -56.5t110.5 -22t110.5 22t73 56 t42.5 87t21 103.5t5 116.5t-5 116.5t-21 103.5t-42.5 87t-73 56t-110.5 22t-110.5 -22t-73.5 -56.5t-43.5 -87t-21.5 -103.5t-5 -116z" />
<glyph unicode="&#xff;" horiz-adv-x="913" d="M23 1008h159l277 -809l274 809h160l-459 -1252q-28 -77 -72 -118q-73 -70 -196 -70h-64v131h45q74 0 107 26.5t59 98.5l72 196zM166 1233v182h147v-182h-147zM600 1233v182h148v-182h-148z" />
<glyph unicode="&#x152;" horiz-adv-x="2025" d="M156 729q0 95 1 143.5t4.5 115t12 103.5t24 82t38.5 78.5t57 67.5q151 151 371 151q222 0 354 -163v151h889v-137h-733q0 -80 1 -260.5t1 -259.5h622v-131h-622q0 -81 -1 -266.5t-1 -266.5h737v-137h-893v152q-66 -81 -158.5 -122.5t-195.5 -41.5q-220 0 -371 151 q-34 34 -57 67.5t-38.5 78.5t-24 82t-12 103.5t-4.5 115t-1 143.5zM311 729q0 -239 18 -334.5t85 -163.5q47 -49 113.5 -76.5t138.5 -27.5t138.5 27.5t113.5 76.5q66 67 83 161.5t17 336.5t-17 336.5t-83 161.5q-47 49 -113.5 76.5t-138.5 27.5t-138.5 -27.5t-113.5 -76.5 q-67 -68 -85 -163.5t-18 -334.5z" />
<glyph unicode="&#x153;" horiz-adv-x="1763" d="M131 504q0 132 26 230.5t97 170.5q115 115 289 115q114 0 205.5 -51.5t138.5 -143.5q104 195 334 195q194 0 303.5 -131t109.5 -357v-67h-680q0 -167 76.5 -257.5t220.5 -90.5q86 0 144.5 26t120.5 88l100 -88q-81 -81 -163.5 -118t-205.5 -37q-254 0 -362 194 q-47 -92 -137.5 -143t-204.5 -51q-175 0 -289 114q-71 72 -97 170.5t-26 231.5zM279 504q0 -107 15.5 -184t65.5 -127q74 -74 183 -74q110 0 184 74q50 50 65 126.5t15 184.5t-15 184.5t-65 126.5q-74 74 -184 74q-109 0 -183 -74q-50 -50 -65.5 -127t-15.5 -184zM954 575 h535q-3 62 -9.5 94.5t-23.5 73.5q-29 69 -92.5 110.5t-142.5 41.5t-143 -41.5t-93 -110.5q-17 -40 -22.5 -72t-8.5 -96z" />
<glyph unicode="&#x178;" horiz-adv-x="1054" d="M16 1458h168l344 -698l340 698h168l-430 -856v-602h-155v602zM236 1616v182h147v-182h-147zM670 1616v182h147v-182h-147z" />
<glyph unicode="&#x2c6;" horiz-adv-x="1024" d="M186 1217l256 313h140l256 -313h-142l-184 213l-184 -213h-142z" />
<glyph unicode="&#x2dc;" horiz-adv-x="1024" d="M182 1343q63 63 107 84t88 21q41 0 71 -11.5t74 -37.5q65 -41 115 -41q28 0 54.5 12.5t66.5 52.5l76 -73q-63 -63 -108 -84t-87 -21q-66 0 -145 47q-73 43 -115 43q-29 0 -54 -11.5t-67 -53.5z" />
<glyph unicode="&#x2000;" horiz-adv-x="1008" />
<glyph unicode="&#x2001;" horiz-adv-x="2017" />
<glyph unicode="&#x2002;" horiz-adv-x="1008" />
<glyph unicode="&#x2003;" horiz-adv-x="2017" />
<glyph unicode="&#x2004;" horiz-adv-x="672" />
<glyph unicode="&#x2005;" horiz-adv-x="504" />
<glyph unicode="&#x2006;" horiz-adv-x="336" />
<glyph unicode="&#x2007;" horiz-adv-x="336" />
<glyph unicode="&#x2008;" horiz-adv-x="252" />
<glyph unicode="&#x2009;" horiz-adv-x="403" />
<glyph unicode="&#x200a;" horiz-adv-x="112" />
<glyph unicode="&#x2010;" horiz-adv-x="872" d="M156 483v138h561v-138h-561z" />
<glyph unicode="&#x2011;" horiz-adv-x="872" d="M156 483v138h561v-138h-561z" />
<glyph unicode="&#x2012;" horiz-adv-x="872" d="M156 483v138h561v-138h-561z" />
<glyph unicode="&#x2013;" d="M106 483v138h857v-138h-857z" />
<glyph unicode="&#x2014;" horiz-adv-x="1871" d="M156 483v140h1560v-140h-1560z" />
<glyph unicode="&#x2018;" horiz-adv-x="538" d="M180 1286v172l178 162v-334h-178z" />
<glyph unicode="&#x2019;" horiz-adv-x="538" d="M180 1124v334h178v-172z" />
<glyph unicode="&#x201a;" horiz-adv-x="538" d="M180 -162v334h178v-172z" />
<glyph unicode="&#x201c;" horiz-adv-x="888" d="M180 1286v172l178 162v-334h-178zM528 1286v172l181 162v-334h-181z" />
<glyph unicode="&#x201d;" horiz-adv-x="888" d="M180 1124v334h178v-172zM528 1124v334h181v-172z" />
<glyph unicode="&#x201e;" horiz-adv-x="888" d="M180 -162v334h178v-172zM528 -162v334h181v-172z" />
<glyph unicode="&#x2022;" horiz-adv-x="1089" d="M211 684q0 138 98 236t236 98t236 -98t98 -236t-98 -236t-236 -98t-236 98t-98 236z" />
<glyph unicode="&#x2026;" horiz-adv-x="1550" d="M180 0v188h189v-188h-189zM680 0v188h188v-188h-188zM1182 0v188h188v-188h-188z" />
<glyph unicode="&#x202f;" horiz-adv-x="403" />
<glyph unicode="&#x2039;" horiz-adv-x="671" d="M82 549l430 430v-184l-246 -246l246 -248v-182z" />
<glyph unicode="&#x203a;" horiz-adv-x="671" d="M160 119v182l248 248l-248 246v184l430 -430z" />
<glyph unicode="&#x205f;" horiz-adv-x="504" />
<glyph unicode="&#x2122;" horiz-adv-x="1718" d="M74 1350v108h604v-108h-244v-766h-119v766h-241zM831 584v874h119l267 -530l266 530h116v-874h-116v630l-209 -413h-115l-209 413v-630h-119z" />
<glyph unicode="&#xe000;" horiz-adv-x="1003" d="M0 0v1004h1004v-1004h-1004z" />
<glyph unicode="&#xfb01;" horiz-adv-x="1150" d="M86 889v112h129v191q0 118 66 194t190 76h107v-127h-80q-136 0 -136 -147v-187h216v-112h-216v-889h-147v889h-129zM807 1309v151h168v-151h-168zM817 0v1001h148v-1001h-148z" />
<glyph unicode="&#xfb02;" horiz-adv-x="1232" d="M86 889v112h129v191q0 118 66 194t190 76h107v-127h-80q-136 0 -136 -147v-187h216v-112h-216v-889h-147v889h-129zM809 268v1190h147v-1184q0 -76 31 -111.5t105 -35.5h82v-127h-107q-127 0 -192.5 73.5t-65.5 194.5z" />
</font>
</defs>
</svg>
